<?xml version="1.0" standalone="no"?>
<!DOCTYPE svg PUBLIC "-//W3C//DTD SVG 1.1//EN" "http://www.w3.org/Graphics/SVG/1.1/DTD/svg11.dtd">
<svg xmlns="http://www.w3.org/2000/svg">
<metadata>Generated by Fontastic.me</metadata>
<defs>
<font id="untitled-font-1" horiz-adv-x="512">
<font-face font-family="untitled-font-1" units-per-em="512" ascent="480" descent="-32"/>
<missing-glyph horiz-adv-x="512" />

<glyph glyph-name="icons8-twitterx" unicode="&#97;" d="M113 471c-40 0-72-32-72-72l0-286c0-40 32-72 72-72l286 0c40 0 72 32 72 72l0 286c0 40-32 72-72 72z m21-92l81 0 58-82 70 82 26 0-84-99 103-147-81 0-67 95-81-95-26 0 95 112z m39-21l145-204 31 0-144 204z"/>
<glyph glyph-name="recurso-1" unicode="&#98;" d="M221 324l0-290 23-34 35 34 0 290z m29 0l0-297 15 17 0 280z m-107 188l10-196 196 0 20 196z m78-50l0 32 61 0 5-32z"/>
<glyph glyph-name="recurso-13" unicode="&#99;" d="M2 428l508-5-5-297-220 0 1-16 165-11-393-15 15 15 184 8-11 24-233-2z m21-19l9-262 450-6-6 263z"/>
<glyph glyph-name="recurso-26" unicode="&#100;" d="M57 468l455-206-512-218 148 218z"/>
<glyph glyph-name="recurso-39" unicode="&#101;" d="M191 509l130 0 90-218-310 0z m174-465l-91 1 4 1 0 245-48 0 0-246-86 1-14-41 249-2z"/>
<glyph glyph-name="recurso-52" unicode="&#102;" d="M139 41l20 12 0 142-20 7z m83 83l12 9 0 35c0 0-12 12-12 7z m148 108l-104-49-147 49 89 51z m0 0l-18 237-87 26-57-212z m-251-24l0-157 20-10 0 160 69-25 0-46 14-6 0 47 23-8 1-152 20-7 0 179-58 19-89 30z m251-178l-19 8 0 156 19 9z m-18 439l16-238-102-48 0-179 19 8 0 152 85 37 0-171 23 11 0 172 0 0-20 271z m-60 39l-27-13 87-26 21 15z"/>
<glyph glyph-name="recurso-65" unicode="&#103;" d="M15 253l0-9 291-44 188 70-244 51 0 97 262-4 0-221-206-99-306 60 0 92z m0 29l0-38 291-44 188 70 0 34-188-61z m0 0l235 39 244-17-188-61z m436 73l-19-56-79 8 19 53z m-92 7l-16-54-79 6 18 55z"/>
<glyph glyph-name="recurso-78" unicode="&#104;" d="M139 322l155 22 0-16-159-26z m-10-76l73-71-7-22-73 73z m189 29l75-62-4-20-68 56z m123-211l-40 328 16 11 14 23 0 27-14-25-36-19-23 0 0-4-31-4 0 8-25-9-41 0-89 5-50 23-21 29 3-40 25-16-58-273 34-15 67 271-1 0 30-9-35-366 36-9 48 369 8-1 19 0 30-205 26 0-5 208 14 1 21 4 47-321z m-340 393l21-29 50-23 89-14 57 0 63 18 36 19 14 25-22 25-62 21-81 13-64-6-60-15z m137-184l136 26 3-20-142-30z"/>
<glyph glyph-name="recurso-79" unicode="&#105;" d="M312 512l-185-111 0-364 18-9 38 19 0 351 130 98 39-7-161-94 0-384 16-11 178 127 0 362z m-121-495l-46 24 0 350 173 109 46-14-173-105z"/>
<glyph glyph-name="recurso-66" unicode="&#106;" d="M225 126l64 0 18 263-35 84-35 0-36-90z m12 347l-27-67 27-280 17 0z m35 0l-8-347 15 0 28 263z m-40-42l-27 14 20-23z m-4-63l-54-14 51-3z m31 88l17-19-22 5z m27-41l25 18-13-29z m0-42l31-41-27 28z m-68-94l-39-32 39 16z m3-78l-20-28 23 14z m18 46l-34-4 34-7z m15 69l-30 9 30-26z m0 64l26 7-26-19z m26-81l37 0-31-9z m0-52l27-36-21 18z m0-60l27-22-27 11z m-21 36l-20-22 20 5z m-5 250l0 39 10-39 6 4 16 10-14-14-15-6-20 6-5 24 13-21 2 13z m-65-337l125 0 24-78-41-58-73 0-35 68z"/>
<glyph glyph-name="recurso-53" unicode="&#107;" d="M152 512l-151-151 0-218 256-143 254 5 0 270-132 237z m228 0l-122-155 0-357 253 5 0 345z m-228 0l-151-151 257-5 122 156z"/>
<glyph glyph-name="recurso-40" unicode="&#108;" d="M355 460l-58-42 0-252 58-63z m-206 52l-104-60 0-361 104-91z m0 0l0-512 160 89 0 363z m112-143l22 0-1-43-21 5z m-47 4l27 0-5-42-22 0z m0-72l27 0-8-52-19 7z m0-69l27 3 0-54-27 7z m-43 153l24-9 0-43-28 5 4 47z m0-84l24 0 0-40-28 0z m-1-175l0 35 25 7 2-37-27-6z m-3 58l0 46 28 5 2-47-30-4z m32 225l-28 11 0 40 30-8-2-43z m15-282l0 41 27-4 3-37-30 0z m30 274l-26 3 0 43 30-9-4-37z m18-270l-8 31 30 10 5-36-27-5z m-8 104l30 3 2-54-29 0-3 51z m29 21l-29 5 4 40 31 0z m9 138l-25 4 0 37 25-11z m63 66l0-357 112 62 0 253-112 42z m85-121l17 1-1-21-16-2z m-37 34l21 0-3-18c0 0-14 3-14 3 0 1-4 15-4 15z m-38 8l25-3-5-26-17 3z m23-161l-17-4-2 32 21 0-2-28z m1 44l-20 0 0 24 21 0z m-20 47l1 29c0 0 0 0 0 0 1-1 20-2 20-2l1-33z m22 83l-21 7 0 26 25-12z m31-173l-18-1-1 27 19 0z m1 41l-20 0 1 27 21-2-2-25z m1 46l-18 1 1 30 20-8z m3 79l-18 6 1 18 23-5z m29-171l-20 2 1 30 19-2 0-30z m-19 46l1 32 19 3 2-37-22 2z m21 95l-18 0 0 15 19 3-1-18z m-17 27l2 21 15 0 4-21z"/>
<glyph glyph-name="recurso-27" unicode="&#109;" d="M1 355l288 0 0 68 222-157-226-177 0 98-284-45z"/>
<glyph glyph-name="recurso-14" unicode="&#110;" d="M258 512l-93-15-67-54-22-77 9-59-31-80 22-12 5-8-1-25 12-10-5-8 13-23-3-29 14-17 57 0 33-4 32-52 17-39 141 127 0 56 25 52 42 81-12 86-67 80z m-16-55l47 5-6-76 81 0-10-41-73 8 3-69-46-8 9 77-81 1 25 34 56-3z"/>
<glyph glyph-name="recurso-2" unicode="&#111;" d="M174 450l179 34 104-77 21-396-56-11-20 379-62 62-154-31z m-112 26l81 36 53-4 40-17 35-26 19-36 9-43-13-50-23-24-82-29z m0 0l51 12 37-17 51-41 22-67-10-46-32-34-60 4-41 25-31 38-15 91z m2-34l-4-6 3-7 5 4z m32 25l-4-6 3-6 5 3z m-34-72l-4-6 3-7 5 4z m19-43l-4-6 3-7 6 3z m34-25l-4-5 3-7 5 3z m43-4l-4-6 3-7 6 3z m29 29l-4-6 3-7 6 3z m-5 43l-4-6 4-7 5 4z m-19 34l-4-6 3-7 5 3z m-29 28l-4-5 3-7 6 3z m0-28l-4-6 3-7 6 3z m-25 13l-4-6 3-6 5 3z m-25-18l-4-5 3-7 6 3z m1-34l-4-6 3-6 5 3z m20-25l-4-6 3-7 5 4z m54 35l-3-6 3-7 5 3z m5-40l-4-5 4-7 5 3z m-30-13l-4-6 3-7 6 4z m-25 66l-4-6 4-6 5 3z m28-12l-4-6 4-7 5 3z m-2-30l-4-5 4-7 5 3z m-18 17l-4-6 3-7 5 4z"/>
<glyph glyph-name="recurso-15" unicode="&#112;" d="M211 271l83 16 0 208-162-15-50 12 0-236 17-23 12-38 4-125 142-59 50-11 46 0 22 18-10 109 20 12 20 22 20 40 5 32z m83 37l112-34 24-18-32-21-51-9-70 6-127 42z m-144-52l0 18 127-42 70-6 51 9 32 21 0-23-14-11-32-11-61-4-67 8z m144 239l-162-15-50 12 158 20z m-134-6l6 10 31 4 8-7-21-4z"/>
<glyph glyph-name="recurso-28" unicode="&#113;" d="M0 265l414 0-9 18 107-29-128-25 26 17-410 0z"/>
<glyph glyph-name="recurso-41" unicode="&#114;" d="M41 470l45 30 52 0 62 12 64 0 55-12 6-15-69-49-108 0z m24-12l33-93-19-337 82-28 68 0c0 0 70 10 70 10l52 18-6 108 100 145 26 92-37 71-60 18-46-11-2 33-70-18-92 0c0 0-71 19-71 19l-52-15z m277-270l-13 239 44 14 48-14 27-54-31-79-75-106z"/>
<glyph glyph-name="recurso-54" unicode="&#115;" d="M396 387l-220-9-111 96-65-115 0-214 113-107 187 0-6 239z m111-146l-1 36-73 73 73-73z m-74 109l-37 37z m7-312l0 0 72 1z m72 1l-5 202z m-212-1l0 0 80 0 0 0z m80 82l60 1 0-83 72 1 0 0-5 202-1 36-73 73-37 37-102-110 6-239 80 0z m-267-82l-113 107 0 250 65 79 147-96-94-73z m97 341l84-102 102 109z"/>
<glyph glyph-name="recurso-67" unicode="&#116;" d="M177 438l57-42 6-37 4 0-6 42-57 41z m89 43l-8-59 4-59 4 0-1 59 7 59z m82-85l-46 4-28-34 5-3 26 30 43-2z m-119-18l9-79-23-17 40-282 34 0c0 0 38 302 34 299-3-4-54 20-54 20l20 51-60 8z m-59 90l-22-22 11-24 33 6 0 30z m99 44l-22-16 11-28 23 0 16 22z m83-98l-16-8 0-16 22-12 6 18z"/>
<glyph glyph-name="recurso-80" unicode="&#117;" d="M225 126l64 0 18 263-35 84-35 0-36-90z m12 347l-27-67 27-280 17 0z m35 0l-8-347 15 0 28 263z m-40-42l-27 14 20-23z m-4-63l-54-14 51-3z m31 88l17-19-22 5z m27-41l25 18-13-29z m0-42l31-41-27 28z m-68-94l-39-32 39 16z m3-78l-20-28 23 14z m18 46l-34-4 34-7z m15 69l-30 9 30-26z m0 64l26 7-26-19z m26-81l37 0-31-9z m0-52l27-36-21 18z m0-60l27-22-27 11z m-21 36l-20-22 20 5z m-5 250l0 39 10-39 6 4 16 10-14-14-15-6-20 6-5 24 13-21 2 13z m-65-337l125 0 24-78-41-58-73 0-35 68z"/>
<glyph glyph-name="recurso-81" unicode="&#118;" d="M390 104l-39 76-33 0 2 31-198 0 36-211 147 0 4 30 27 0 54 74z m-80-51l7 110 26-2 24-56-36-53-21 1z m-146 174l93 5 63-21-198 0z m39-16l-31 62 31 52-37 69 49 118 70-48-1-70-49-28 10-34-49-59 57-62z"/>
<glyph glyph-name="recurso-68" unicode="&#119;" d="M328 293l65 24 43 82z m18 96l-18-96 108 106z m-117-85l-57 52-96 33z m-130 10l130-10-153 85z m145 66l-36 83-74 46z m-59 9l59-9-110 129z m98-10l85 54-2 73z m8 63l-8-63 83 127z m-47-224l-27 87 12-1 22-86z m97 80l-42-86-13 0 42 81z m-58 81l-4-144 7 4 7 146z m-39 1l-10 2 28-149 7 2z m149-184l-7 53-258-6 8-55 21 0 64-184 100-1 46 193z"/>
<glyph glyph-name="recurso-55" unicode="&#120;" d="M365 346l0 52-108 58-101-73 0-49c0 0 98-86 105-86 6 0 72 10 72 10z m-234 0l-130-94 0-153 207 0 7 97 46 0 0-97 51 0 0 188z m267 23l-118-83 0-222 231-8 0 79-86 0 1 93 85 0 0 61z"/>
<glyph glyph-name="recurso-42" unicode="&#121;" d="M434 392l0-289-71-47-100-18-110 14-74 59-5 281 68-25 80-5 78 0 88 14z m-177 47l46 0 53-9 69-18 9-20-46-16-88-14-78 0-80 5-68 25 5 22 63 18 55 8z m-44-28l0 42 81 0 0-42 18 0 0 55-116 8 0-63z m-121-74l-92 31 30 43 44-19 0-18-35 18-14-18 67-17z m332 0l88 25-23 44-55-14 1-13 47 13 4-12-68-18z"/>
<glyph glyph-name="recurso-29" unicode="&#122;" d="M52 116l0 307 241 7 0 81 167-237-156-273-13 119z"/>
<glyph glyph-name="recurso-16" unicode="&#65;" d="M273 512l-48-79 40 0 0-330-64 164-109 20 22 47-87-23 43-62 14 21 100-41 55-165-5-54 68-10 0 86 73 152 57 16 10-25 43 56-76 7 6-16-45-16-84-122 2 294 38 9z"/>
<glyph glyph-name="recurso-3" unicode="&#66;" d="M472 380l-56 65-84 50-109 12-70-19-88-63-65-127 3-92 46-106 82-65 79-30c0 0 112 4 117 7 5 3 102 68 102 68l64 99 10 93-31 108z m-144-27l-34-87 101-10 0 24-73 1 37 79z m-173 7l59-87-114-7 7 21 72 0-37 59z m2-152l-44-28 24-55 69-21 130 7 37 35 0 42-13 20-38 0c0 0-38-21-45-23-7-1-46-5-46-5l-74 28z m355 280l-113 8-12-76 45-28-29-73 93 78-29 29z"/>
<glyph glyph-name="recurso-4" unicode="&#67;" d="M82 415l51-116 17-1-58 125 0 21c0 0-20 7-19 6 1-1 0-27 0-27l-59-115 72-6-53 6z m4-113l48-4-1 1z m358 16l51-117 17-1-56 121-2 15-6 3-3 7-3-5-8 4 0-21-58-114 71-5-53 5z m3-113l48-5 0 1z m-399 21l40 0 53 25 9 47-136 10-14-32 20-29z m378-101l55 0 31 29 0 46-136 10-9-31 23-40z m60 198l14 18-477 139 0-24 224-64 7-320-104 5 0-45 226 0-15 36-87 3-6 315z m-225 42l-18 6-20 24 0 18 8 18 18 7 20 0 16-5 7-18 0-27z"/>
<glyph glyph-name="recurso-17" unicode="&#68;" d="M475 455l-63 45-84-10-75-79-54 61-71 28-78-17-49-65 0-110 55-111 91-94 106-91 101 91 74 85 59 82 24 108-36 78z m-42-208l-37-3-57-72-33 80-74-149-55 184-33-50-77-2-11 37 65 0 64 134 54-221 70 144 45-99 32 43 64 2-17-28z"/>
<glyph glyph-name="recurso-30" unicode="&#69;" d="M0 305l373 0 0 66 139-130-152-100 0 83-360-23z"/>
<glyph glyph-name="recurso-43" unicode="&#70;" d="M140 322l154 21 0-16-159-26z m-10-76l72-71-7-22-73 74z m188 29l75-62-4-20-68 56z m122-210l-39 326 15 11 14 23 0 28-14-25-36-20-23 0 1-3-31-5 0 8-26-9-40 0-89 6-50 22-21 29 4-40 25-16-58-271 33-15 67 269 0 1 30-9-36-365 36-9 48 368 8-1 18 0 31-205 26 0-5 207 14 1 20 4 47-319z m-339 391l21-29 50-22 89-15 57 0 62 18 36 20 14 25-22 24-62 21-80 13-64-6-60-15z m137-184l136 27 2-20-141-30z"/>
<glyph glyph-name="recurso-56" unicode="&#71;" d="M191 509l130 0 90-218-310 0z m174-465l-91 1 4 1 0 245-48 0 0-246-86 1-14-41 249-2z"/>
<glyph glyph-name="recurso-69" unicode="&#72;" d="M464 356l0-252 48 48 0 227z m-180-72l2 29 149 0 0-43z m-258 7l-1 35 201-9 0-29-200 4z m-26-150l268-21-1 48 39-6 6-46 152-12 0 252-464 28z m83 267l-83-24 464-28 48 23z"/>
<glyph glyph-name="recurso-82" unicode="&#73;" d="M11 203l0-28 145-86 345 152 0 33z m479 87l-334-135-156 94 312 101z m-178 121l41 12 159-49-22-15z m178-52l-178 52 0-61 178-60-334-135-156 94 0-40 156-94 334 146 22 10 0 103z m-185-21l126-53 29 46-126 43z"/>
<glyph glyph-name="recurso-83" unicode="&#74;" d="M198 512l-137-164 386 0z m249-164l-386 0 0-348 234 0 0 174 152 0z m-302-84l-55-12 0 67 55 0z m150-264l48 0 0 71 57 26 0-97 47 0 0 174-152 0z m5 174l151 0-59 61z"/>
<glyph glyph-name="recurso-70" unicode="&#75;" d="M202 160l141-18 0-105-141-22 0-13 214 38 6 84 23-6 0-72 27 4 0 168-270 223z m-48 350l-114-110 162 41z m-114-110l0-375 162-23 0 13-3 0-78 11 0 122 76 12 5 0 0 281z m162 41l270-223-51 55-267 237z"/>
<glyph glyph-name="recurso-57" unicode="&#76;" d="M462 339l-73-77-107-16z m-130 137l130-137-40-20-140-73-28 208z m63-240l27 83-102-54z m-131-190l-214 270 203 144-3 23 55 27 39-46-85-47-2 19-170-122 214-268 97 0 24-17-286 0 15 17z m-128-17l286 0 0-27-286 0z"/>
<glyph glyph-name="recurso-44" unicode="&#77;" d="M487 368l-410 12 0-88 395-21z m-69-61l-15 0 2-82-327 24-9 1-53 4 0 93-16 0 0-184 14 0 32 50 23-1 0-15 11 0 3 14 295-22 30-66 12 0 0 101z m-13-82l-389 28 61 39 326-17z m-328 155l-61-33 0-94 61 39z m435-139l0 136-94-70 2-121 0-63 12 9 20 73 39 23 10-44 11 0 0 57z m-435 148l-17-9-48-26-12-7 16 0 60 33 411-12-84-61 15 0 81 61 13 9z"/>
<glyph glyph-name="recurso-31" unicode="&#78;" d="M97 498l360-71-17-390-343 103z m329-93l-13-329-291 87 0 300z m-19-17l-11-288-255 77 0 262z m-130 28l-3-287-19 0 7 295z m-155 47l-122-68 2-273 120 41z m304-58l86-88-7-303-92 62z"/>
<glyph glyph-name="recurso-18" unicode="&#79;" d="M333 503l179-74-74-170-48 12 10 46-28 34-39 0-32-39-42 18 28 51-39 11-19 40 24 25 38 2 17-20z m-104-308l0-26 37-13 23-35-7-41-53-32 0-39 186 0 0 179-80 7 14 28-27 36-38-7 0-31 5-28z m-66-5l34 0 7-68 25 20 21-8 14-33-27-28-23 10-16-74-198 0 0 181 48 0 7-32 37-13 40 4z m-163 30l74 0 0-30 16-21 34 0 8 38 0 20 68-9 0 71-39-13-29 22 0 38 33 20 35-11 0 68c0 0-205 3-200 0 5-4 0-193 0-193z"/>
<glyph glyph-name="recurso-5" unicode="&#80;" d="M409 333l-51 57-60 28-44 5-39-4-44-16-46-35-33-48-14-45 1-65 21-56 46-51 83-35 99 15 61 46 29 47 13 92-22 65z m-20-162l-55-51-29-17-83-5-65 25-37 45-23 60 8 70 35 54 48 33 48 14 40 0 64-31 32-34 22-39 7-59-12-65z m-147 295l0-87c0 0 22-9 22-6 0 2 5 100 5 100l-27-7z m129-220l141 2-24-26-106 0z m-129-99l-7-108 29 0 0 101z m-116 109l-6-19-120-2 16 27z"/>
<glyph glyph-name="recurso-6" unicode="&#81;" d="M258 47l0 188 181 77 7-190z m253 330l-72-65-181 76 50 77z m-253-330l-193 72 19 194 174-78z m253 194l-202-85-51 79 181 77z m-427 72l-83-38 202-119 55 79z m174 75l181-76-181-77z m-41 63l-216-79 83-59 174 75z m-133-138l174-78 0 153z"/>
<glyph glyph-name="recurso-19" unicode="&#82;" d="M144 427l9-18-9-20-16 19z m352-89l-33 64-81 73-138 36-91-24-92-68-47-94-11-84c0 0 28-109 32-113 4-4 88-85 88-85l112-42 93 11 99 54 51 70 31 92-12 110z m-60-226l-88-69-102-18-105 34-84 82-30 115 23 100 78 84 128 41 84-20-20-20-17 0-50 21-31-5-40-22 28-15 27 24 14-7-24-32-31 3-14-12-24-1-2-18-22-3-14-27 32-5 40 31 10-30 20 30 6-16 32 4 6-17 34 0 2-16-13-8-66 0-50 11-69-21-5-78 89-27 17-100 41-39 30 0 41 64 0 48 44 52-75 63 20 13 42-47 36 13-27 32 17 7 24-21 17 2 29-53 14-2 6 33 13 6 0-77z"/>
<glyph glyph-name="recurso-32" unicode="&#83;" d="M406 503l-330 9-61-185 0-313 78 0 0 153 66 85 76-99 136 0 0-139 51 0 0 63 48 6 0-69 27 0 0 356z m-313-489l36 0 0-14-36 0z m85 0l193 0 0-14-193 0z m57 139l-76 99-66-85 0-153 37 0 0 43 48-6 0-37 193 0 0 139z m-159 359l-61-185 330 12 61 164z m159-359l136 0 0-59-158 0z m-22-59l-90 112 36 46 76-99z"/>
<glyph glyph-name="recurso-45" unicode="&#84;" d="M469 292l-196 72-198-72 206-122z m-196 72l0 114-198-65 0-121z m-262-178l-10 164 217-105 0-184z m458 159l-196 74 36 30 202-76z m0 0l0-53-196 72 0 55z m-196 133l-30 11-192-64 24-12z m-222-53l0-59 24-11 0 58z m-25-87l192-93 63 17-204 93z m0 0l-25 12z m25 29l-50-17 25-12 51 17z m258 82l-36-30 0 16z m-272-279l0-66 14 0 8 54z m432 175l0-53-188-122 0 92-63-17 0-184 19 13 6-51 19 4 0 65 207 143 0 0 3 2 5-43 12 0 5 59 17 12 0 108z"/>
<glyph glyph-name="recurso-58" unicode="&#85;" d="M431 373l-52 86-119-226 7-183 117 39-5 166z m-431-178l0-151 76-11 0 147z m450 211l-31-15-48-108 28-4z m-79-123l7-198 30-16-9 210z m-233-22l0-157 129-54-7 183z m104 218l-104-218 122-28 119 226z m-242-284l76-15 124 42-62 11z m76-162l0 147 124 42 0-144z m436 274l-62 99-51-127 9-210 40 19 2 92 38 15 0-89 24 11z"/>
<glyph glyph-name="recurso-71" unicode="&#86;" d="M284 197l-126-61 0-68 85 0c0 0-2-31 0-31l119 0 0 113z m178 278l-37-32 0-74 86 0 0 74z m-461-295l0-113 136 0 0 113-64 37z m359 232l73-75 0-75-87 0 0-26-55 0 0 105z m-204-41l-53-53 0-103 164 0 0 103-55 0z m222-136l15-198 118 0 0 198z m6-10l121 0 0-178-107 0z m54-77l-17-76 57 0-23 76 16 26-22 23-28-24z m15 157l0-46 58 0 0 46-24 25z"/>
<glyph glyph-name="recurso-84" unicode="&#87;" d="M49 340l73-78 107-16z m134 138l-131-138 40-21 141-73 28 210z m-67-242l-27 83 103-53z m132-192l215 273-204 145 3 22-56 28-38-46 85-47 2 18 172-123-216-270-98 0-24-16 288 0-15 16z m-159-16l288 0 0-28-288 0z"/>
<glyph glyph-name="recurso-85" unicode="&#88;" d="M328 294l65 24 44 83z m20 96l-17-96 109 107z m-121-86l-58 53-97 33z m-128 11l131-11-155 86z m144 67l-37 83-75 47z m-60 8l63-8-112 130z m99-10l86 55-3 73z m11 64l-8-64 83 128z m-50-226l-28 87 12-1 23-86z m98 80l-43-87-13 0 43 83z m-59 82l-4-145 7 4 7 147z m-39 2l-11 1 28-150 8 2z m150-186l-7 53-261-6 8-56 22 1 65-186 100-2 47 195z"/>
<glyph glyph-name="recurso-72" unicode="&#89;" d="M139 474l-15-465 263-9-15 485z m208-204l-13-14 7-13 12 0 11 13z m56 242l-290-13-18-491 29 1 15 465 233 11 15-485 30 0z m-249-52l-4-178 214 4-7 188z m-15-435l11 203 214-4 8-207z"/>
<glyph glyph-name="recurso-59" unicode="&#90;" d="M56 139l-38-66 19 0 75 64z m399-8l39-58-15 0-75 56z m-346-25l18 33 32 0-37-33z m279 33l30-33-15 0-50 33z m-388 282l512 0-13-294-483 13z m11-12l5-81 480-7 5 83z m7-94l4-71 467-11 5 75z m470-94l-3-80-454 13-5 79z m-488 200l87 18 364 0 61-18z"/>
<glyph glyph-name="recurso-46" unicode="&#48;" d="M53 280l0-62 228-14 0 76z m245 90l-191 7-54-97 228 0z m161-36l0 95-36 0 0-52z m-89 112l-136-143 0-108-214 9 0-138 341 0 0 96 62-15-1-81 62 0 0 237z m-341-210l-29-32 512-19-28 29z"/>
<glyph glyph-name="recurso-33" unicode="&#49;" d="M11 203l0-28 145-86 345 153 0 32z m478 87l-333-135-156 94 312 101z m-177 120l41 13 159-50-23-14z m177-51l-177 51 0-60 177-60-333-135-156 94 0-40 156-94 333 146 23 10 0 102z m-184-21l126-53 29 46-127 42z"/>
<glyph glyph-name="recurso-20" unicode="&#50;" d="M77 512l0-46 358 10 0 36z m312-358l-81 104 81 104 23 114-36-1-30-113-180 0-34 106-36-1 22-90 82-120-73-98-31-122-19 0 0-37 358 4 0 33-23 0-23 117z m-117 99l82-105 22-101-116 84 13 122z m-38-8l-2-121-94-75 26 108 70 88z"/>
<glyph glyph-name="recurso-7" unicode="&#51;" d="M310 362l-158-50-150-87 125-75 158 0 162 50 63 56 0 77-117 29z"/>
<glyph glyph-name="recurso-8" unicode="&#52;" d="M5 170l76-38 290 0 136 66 0 182-502-107z"/>
<glyph glyph-name="recurso-21" unicode="&#53;" d="M0 331l10-318 501-10 0 328z m201-131l117-6 0-53-117 0 0 59z m-35-149l-108 2 0 60 111 0z m-1 90l-106 0-6 59 119 0-7-59z m7 89l-125 0 0 61 131 0-6-61z m148-179l-123 0 4 62 122 8-3-70z m3 179l-111 0-6 61 117-6z m24 58l110 3 0-61-108 0-2 58z m5-91l100 0 0-53-98-3-2 56z m109-146l-107 6-2 58 109-8 0-56z m-310 458l-55 0 0-80 48 0z m355-47l-66 0 0-38-66 5-3 33-218 0-4-38-58 0 0 38-80 0-11-109 512 5z m-136 41l9-68 54-6 0 74z"/>
<glyph glyph-name="recurso-34" unicode="&#54;" d="M81 373l53 86 118-226-7-183-117 39 6 166z m431-178l0-151-76-11 0 147z m-450 211l31-15 48-108-28-4z m79-123l-7-198-30-16 9 210z m233-22l0-157-129-54 7 183z m-104 218l104-218-122-28-118 226z m242-284l-76-15-124 42 62 11z m-76-162l0 147-124 42 0-144z m-436 274l62 99 51-127-9-210-39 19-3 92-38 15 0-89-24 11z"/>
<glyph glyph-name="recurso-47" unicode="&#55;" d="M389 105l-38 75-33 0 2 32-197 0 36-211 145 0 4 30 28 0z m-79-51l7 110 25-2 24-56-35-53z m-145 173l92 5 63-20-197 0z m38-15l-30 61 30 52-37 68 50 117 69-47-1-70-49-28 10-33-48-59 56-61z"/>
<glyph glyph-name="recurso-60" unicode="&#56;" d="M43 292l196 72 198-72-206-122z m196 72l0 114 198-65 0-121z m262-178l10 164-217-105 0-184z m-458 159l196 74-36 30-202-76z m0 0l0-53 196 72 0 55z m196 133l30 11 192-64-24-12z m222-53l0-59-24-11 0 58z m25-87l-192-93-63 17 204 93z m0 0l25 12z m-25 29l50-17-25-12-51 17z m-258 82l36-30 0 16z m272-279l0-66-14 0-7 54z m-432 175l0-53 188-122 0 92 63-17 0-184-19 13-6-51-19 4 0 65-207 143 0 0-3 2-5-43-12 0-5 59-17 12 0 108z"/>
<glyph glyph-name="recurso-73" unicode="&#57;" d="M355 460l-58-42 0-252 58-63z m-206 52l-104-60 0-361 104-91z m0 0l0-512 160 89 0 363z m112-143l22 0-1-43-21 5z m-47 4l27 0-5-42-22 0z m0-72l27 0-8-52-19 7z m0-69l27 3 0-54-27 7z m-43 153l24-9 0-43-28 5 4 47z m0-84l24 0 0-40-28 0z m-1-175l0 35 25 7 2-37-27-6z m-3 58l0 46 28 5 2-47-30-4z m32 225l-28 11 0 40 30-8-2-43z m15-282l0 41 27-4 3-37-30 0z m30 274l-26 3 0 43 30-9-4-37z m18-270l-8 31 30 10 5-36-27-5z m-8 104l30 3 2-54-29 0-3 51z m29 21l-29 5 4 40 31 0z m9 138l-25 4 0 37 25-11z m63 66l0-357 112 62 0 253-112 42z m85-121l17 1-1-21-16-2z m-37 34l21 0-3-18c0 0-14 3-14 3 0 1-4 15-4 15z m-38 8l25-3-5-26-17 3z m23-161l-17-4-2 32 21 0-2-28z m1 44l-20 0 0 24 21 0z m-20 47l1 29c0 0 0 0 0 0 1-1 20-2 20-2l1-33z m22 83l-21 7 0 26 25-12z m31-173l-18-1-1 27 19 0z m1 41l-20 0 1 27 21-2-2-25z m1 46l-18 1 1 30 20-8z m3 79l-18 6 1 18 23-5z m29-171l-20 2 1 30 19-2 0-30z m-19 46l1 32 19 3 2-37-22 2z m21 95l-18 0 0 15 19 3-1-18z m-17 27l2 21 15 0 4-21z"/>
<glyph glyph-name="recurso-86" unicode="&#33;" d="M373 41l-20 12 0 142 20 7z m-83 83l-12 9 0 35c0 0 12 12 12 7z m-148 108l104-49 147 49-89 51z m3 0l18 237 88 26 57-212z m159-30l-58-19 0-179 20 7 1 152 23 8 0-47 14 6 0 46 69 25 0-160 20 10 0 181z m-162-172l19 8 0 156-19 9z m2 201l16 238-21 15-20-271 0 0 0-172 23-11 0 171 85-37 0-152 19-8 0 179z m76 277l-81-24 21-15 87 26z"/>
<glyph glyph-name="recurso-74" unicode="&#34;" d="M205 317l39 14 25 49z m10 57l-10-57 64 63z m-69-51l-35 32-57 19z m-78 7l78-7-92 51z m87 39l-22 49-44 28z m-36 5l36-5-66 77z m59-6l51 33-2 43z m5 38l-5-38 49 76z m-28-134l-16 52 7-1 13-51z m58 48l-26-52-7 0 25 49z m-35 48l-3-86 5 3 4 87z m-23 1l-6 1 16-89 5 1z m89-110l-5 31-154-3 5-33 13 0 38-110 60-1 27 116z m-44-221l20 12 0 144-20 7z m85 85l12 8 0 35c0 0-12 13-12 8z m150 109l-106-51-149 51 90 52z m0 0l-19 240-88 26-58-214z m-255-25l0-158 20-11 0 162 70-25 0-47 15-5 0 47 22-8 1-155 21-7 0 181-59 20-90 31z m255-180l-19 7 0 159 19 9z m-19 445l17-241-104-50 0-181 19 9 0 154 87 38 0-174 23 11 0 174 0 0-21 276z m-61 40l-27-14 88-26 21 16z"/>
<glyph glyph-name="recurso-61" unicode="&#35;" d="M157 292l-4-132 18 0 4 132z m185 0c1-5 0-132 0-132l25 4-6 128-19 0z m-215-26l263 0-7-18-249 0z m256-73l7-17-263 0 5 17z m-251 33l251 0 0-13-251 0z m-73-100l7 12 7-12 10 12 4-22-10-20-18 0-14 14 8 28z m38-26l-25-16-1 12-5 0 0-13-34 17 9-33 25 0 0-13 9-4-2 17 14 6z m286-46l-6 59 32 0-6 32-295 0-4-32 40 0 0-59-144 0 0-21 504 0 8 21z m-217 0l4 59 181 0 4-59z m237 91l3-14-299 2 1 12z m86 311l-47 23-48-23 18-96 19 0 4-305 18 0-4 305 16 0z m-40-77l-18 0-22 68 56 0-16-68z"/>
<glyph glyph-name="recurso-48" unicode="&#36;" d="M389 105l-38 75-33 0 2 32-197 0 36-211 145 0 4 30 28 0z m-79-51l7 110 25-2 24-56-35-53z m-145 173l92 5 63-20-197 0z m38-15l-30 61 30 52-37 68 50 117 69-47-1-70-49-28 10-33-48-59 56-61z"/>
<glyph glyph-name="recurso-35" unicode="&#37;" d="M508 396l4-256-85-71-7 289z m-380-25l0-160-112-51 0 223z m-112-211l0 223 405-46-1 21-420 45 0-243z m264-57l-4 251 145-17 6-268z m-4 251l145-17 0-11-52 14-10-10-27 3-4 12-52 2z m1-83l146-21 0-6-50 11-9-8-38 3-4 10-45 5z m1-84l147-21 0-7-54 12-12-8-32 6-4 8-45 1z m-278 216l143 40 365-47-88-38z"/>
<glyph glyph-name="recurso-22" unicode="&#38;" d="M315 512l9-24-28-22-58 13-57-21-35-61 17-67 50-35 50 0 57 43 8 49-14 58 31 34 21-22 0 55z m-31-158l-53-29-33 32-20 34 20 41 42 12 31-15 26-36-13-39z m13-89l-59 6-48-18-31-56 0-52 39-34 40-17 0-35-30 0 1-23 36 0 0-36 23 0 0 36 29-2 0 25-34 0 2 26 32 14 36 22 8 40 0 62-44 42z m0-125l-59-8-42 22 13 68 29 18 50 0 24-36-15-64z"/>
<glyph glyph-name="recurso-9" unicode="&#39;" d="M408 497l-50-40-74-23-111-80-116-91-15-38 0-23 108 54-82-68-33-43-33-51 25-17 57 60 41 32 54 35 26 10-52-46-36-41-32-43-36-34-18-25 18-10 36 24 50 34 46 44 38 39 36 27-50-65c0 0-28-36-34-42-6-6-32-33-32-33l-11-22 22-6 42 23 40 32 32 36 29 35 34 47 28 53 4-51-15-38-6-26 20-6 50 46 40 59 0 73-14 63 25 36 51 41z"/>
<glyph glyph-name="recurso-10" unicode="&#40;" d="M144 428l9-18-9-20-17 19z m354-90l-34 65-82 73-138 36-91-23-93-69-47-95-12-84c0 0 29-110 33-114 4-4 88-86 88-86l113-41 93 10 100 55 52 70 31 93-13 110z m-342-11l-20-16-9-36 29-23 19 0 21 20 0 29-8 14z m170-18l-4-23 16-31 35 3 13 12 2 27-19 20-14 4z m-207-110l7 7 43-53 50-26 43-4 54 8 33 29 30 46 12-10-52-73-30-19-37-8-46 0-47 17-28 24z"/>
<glyph glyph-name="recurso-23" unicode="&#41;" d="M46 59l204 451 216-508-216 147z"/>
<glyph glyph-name="recurso-36" unicode="&#42;" d="M365 346l0 52-108 58-101-73 0-49c0 0 98-86 105-86 6 0 72 10 72 10z m-234 0l-130-94 0-153 207 0 7 97 46 0 0-97 51 0 0 188z m267 23l-118-83 0-222 231-8 0 79-86 0 1 93 85 0 0 61z"/>
<glyph glyph-name="recurso-49" unicode="&#43;" d="M61 288l229 2 0-38-290-13z m451 15l-222 0 37 144z m-512-64l0-140c0 0 290 0 290 0l0 152c0 0-290-12-290-12z m229-9l45 0 0-18c0 0-41-3-41-3l-4 21z m-74-2l56 2 0-21-56 0z m-81-18l4 19 63-1-3-18-64 0z m-64 14l51 5-6-19-41-2-4 16z m502 79l0-238-43 0 0 64-37-4 0-60-142 0 0 238z"/>
<glyph glyph-name="recurso-62" unicode="&#44;" d="M157 292l-4-132 18 0 4 132z m185 0c1-5 0-132 0-132l25 4-6 128-19 0z m-215-26l263 0-7-18-249 0z m256-73l7-17-263 0 5 17z m-251 33l251 0 0-13-251 0z m-73-100l7 12 7-12 10 12 4-22-10-20-18 0-14 14 8 28z m38-26l-25-16-1 12-5 0 0-13-34 17 9-33 25 0 0-13 9-4-2 17 14 6z m286-46l-6 59 32 0-6 32-295 0-4-32 40 0 0-59-144 0 0-21 504 0 8 21z m-217 0l4 59 181 0 4-59z m237 91l3-14-299 2 1 12z m86 311l-47 23-48-23 18-96 19 0 4-305 18 0-4 305 16 0z m-40-77l-18 0-22 68 56 0-16-68z"/>
<glyph glyph-name="recurso-75" unicode="&#45;" d="M512 288l-111 122-230 0-127-127 0-242 84 0 0 77 78 0 0-77 306 0z m-213-8l0-239 213 0 0 247-110 122z m103 131l-234 0-128-128 258-4z m-275 60l-127-127 255-4 103 131z"/>
<glyph glyph-name="recurso-76" unicode="&#46;" d="M87 510l338 0 0-508-299 0z m16-25l306 0 0-458-270 0z m138-197l-45-197 144 0-57 197 40 67-55 58-72-62z"/>
<glyph glyph-name="recurso-77" unicode="&#47;" d="M78 512l-61-183 0-311 478 0 0 353-90 132z m0 0l-61-183 327 12 61 162z m16-507l0 165 66 84 75-98 135 0 0-151z m141 151l135 0 0-58-157 0z m-22-58l-89 110 36 46 75-98z m-82-98l48 0 0 55-48 6z m289 80l0-66 48 0 0 73z"/>
<glyph glyph-name="recurso-64" unicode="&#58;" d="M446 232l-126-5-64 55-37-66 0-122 65-62 107 1-4 136z m63-83l-1 21-41 41 41-41z m-42 62l-21 21z m4-178l0 0 41 0z m41 0l-3 116z m-121 0l0-1 45 1 0 0z m45 46l35 1 0-47 41 0 0 0-3 116-1 21-41 41-21 21-59-63 4-136 45 0z m-313-48l0 0 0 0z m0 0l0 0 0 0z m0 152l0 0-55 58-68-72 0-138 123 0 0 0z m-4 100l70-52-76 59-45-49 0 0 45 47z m70-187l-17-17 17 17 0 1z m-66-65l25 25z m53 191l13 9 0 0 0 0-70 52z m-28-166l-25-25 0 0 25 25z m24 23l17 17 0 1-17-18z m-59 209l6-5z m63-66l-57 61-6 5-45-47 55-58z m-53-191l0 0 0 0 0 0z m0 152l0 0 0-152 0 0 0 152z m0-152l0 0 25 25 0 0z m55 189l0-135-6-5 0-1 17 18 0 134-13-9z m-30-114l24 17 0-43 6 5 0 135-2 2-53-39 0 0 0-152 25 25z m136-74l-65 62 0 143 37 45 84-55-53-42z m55 195l48-58 59 63z m70 254l-1 0-97 0-66-65 0-93 34-19 0 52 23-8 0-57 54-30 0 0 0 154z m18-219l38 1z m-18 219l0 0 56-101 0 32z m-53-66l0-154 36 1 0 45 35 1 0-46 38 1 0 117-56 101z m-45 66l-66-65 111-2 53 67z"/>
<glyph glyph-name="recurso-63" unicode="&#59;" d="M406 503l-330 9-61-185 0-313 78 0 0 153 66 85 76-99 136 0 0-139 51 0 0 63 48 6 0-69 27 0 0 356z m-313-489l36 0 0-14-36 0z m85 0l193 0 0-14-193 0z m57 139l-76 99-66-85 0-153 37 0 0 43 48-6 0-37 193 0 0 139z m-159 359l-61-185 330 12 61 164z m159-359l136 0 0-59-158 0z m-22-59l-90 112 36 46 76-99z"/>
<glyph glyph-name="recurso-50" unicode="&#60;" d="M308 511l-193-77 92-21 0-383 190 98 0 358z m-94-504l10 32-17-9 0-29z m175 92l8 4 0 25-26-13z m-175 308l96 37 0-352-96-48z m105 42l0-352 70 37 0 340z m-8-152l-9-18 0-35 9-15z m-196 137l0-364 92-40 0 383z m11-390l17 14-28 12 0-26z m70-38l11-5 0 29-21 9z"/>
<glyph glyph-name="recurso-51" unicode="&#61;" d="M372 322l-154 21 0-16 159-26z m10-76l-72-71 7-22 73 74z m-188 29l-75-62 4-20 68 56z m-122-210l39 326-15 11-14 23 0 28 14-25 35-20 24 0-1-3 31-5 0 8 26-9 40 0 89 6 50 22 21 29-4-40-25-16 58-271-33-15-67 269 0 1-30-9 36-365-36-9-48 368-8-1-18 0-31-205-26 0 5 207-14 1-20 4-47-319z m339 391l-21-29-50-22-89-15-57 0-63 18-35 20-14 25 22 24 61 21 81 13 64-6 60-15z m-137-184l-136 27-2-20 141-30z"/>
<glyph glyph-name="recurso-38" unicode="&#62;" d="M427 398l-358 14-69-191 371-18z m-261-97l0 168-42-21 0-158z m205-98l-371 18 5-140 64-7 0 58 55 0-6-63 96-10 9 64 55 9 0-80 93-9z m56 195l-56-195 0-160 141 43 0 152-85 160z"/>
<glyph glyph-name="recurso-37" unicode="&#63;" d="M356 2l22 0-110 234-12 219-25 0 0-229-113-224 23 0 106 185 1-3-50-153 22 0 38 121 36-121 15 0-39 161 0 0z m-194 508l169 0 125-44 9-50-150-24-178 16-90 47 9 29z m-115-55l8-32 82-48 178-14 150 31 0 24-150-24-178 16z"/>
<glyph glyph-name="recurso-24" unicode="&#64;" d="M262 431l-57-53 68-36-273-18 1-118 237-1-56-32 81-92 249 198z"/>
<glyph glyph-name="recurso-25" unicode="&#91;" d="M337 333l-12-20 71-31-395 0-1-53 384 0-74-28 37-22 165 76z"/>
<glyph glyph-name="recurso-12" unicode="&#93;" d="M369 465l-32 23-44-6-38-40-28 31-37 15-41-9-25-34 0-57 29-57 47-49 55-47 52 47 38 44 30 43 13 55-19 41z m-88-434l0 159 67 72 59 53 11-36-61-57 6-28 55 36 26 49 0 109 19 35 30 0 9-91 10-105-83-101-29-36 13-66z m-50 0l0 159-67 72-59 53-11-36 61-57-6-28-55 36-26 49 0 109-19 35-30 0-9-91-10-105 83-101 29-36-13-66z"/>
<glyph glyph-name="recurso-11" unicode="&#94;" d="M507 207c-19 0-82 16-82 16 0 0-85 145-95 161-11 16-20 128-20 128l-57 0-35-95 57-123-196 46-48-29 15-50-41 0 0-54 14-35-14-30 44-49-18-28 29-38 215-27 114 30 96-8 22 185z"/>
</font>
</defs>
</svg>
